The Man in the High Castle HDTV 720p AC3 5.1 | Star Trek: The Next GenerationS01E01 | Kalender

Reprisal 2018 Movies BRRip x264 5.1 with Sample ☻rDX☻

  • Category Movies
  • Type h.264/x264
  • Language English
  • Total size 950.0 MB
  • Uploaded By nehalpuja
  • Downloads 78
  • Last checked 7 minutes ago
  • Date uploaded 16 hours ago
  • Seeders 13
  • Leechers 6

Infohash : 78D49B9D86821AF954874249E5F4BFA01B8E349B

Reprisal 2018 Movies BRRip x264 5.1 with Sample ☻rDX☻
===============================================================================================

SCREEN SHOTS:



or

http://iphonehosting.eu/2018/10/sell/1.html

File size : 940 MiB
Duration : 1 h 29 min
Overall bit rate mode : Constant
Overall bit rate : 1 474 kb/s
Movie name : Reprisal 2018 Movies BRRip x264 5.1 ☻rDX☻

Video
ID : 2
Format : AVC
Format/Info : Advanced Video Codec
Format profile : [email protected]
Format settings, CABAC : Yes
Format settings, ReFrames : 2 frames
Format settings, GOP : M=1, N=12
Codec ID : V_MPEG4/ISO/AVC
Duration : 1 h 29 min
Bit rate mode : Constant
Bit rate : 1 027 kb/s
Width : 720 pixels
Height : 392 pixels
Display aspect ratio : 1.85:1
Frame rate mode : Constant
Frame rate : 23.976 FPS
Color space : YUV
Chroma subsampling : 4:2:0
Bit depth : 8 bits
Scan type : Progressive
Bits/(Pixel*Frame) : 0.152
Stream size : 636 MiB (68%)
Title : ☻rDX☻
Default : Yes
Forced : No

Audio
ID : 1
Format : AC-3
Format/Info : Audio Coding 3
Mode extension : CM (complete main)
Format settings, Endianness : Big
Codec ID : A_AC3
Duration : 1 h 29 min
Bit rate mode : Constant
Bit rate : 448 kb/s
Channel(s) : 6 channels
Channel positions : Front: L C R, Side: L R, LFE
Sampling rate : 48.0 kHz
Frame rate : 31.250 FPS (1536 spf)
Bit depth : 16 bits
Compression mode : Lossy
Stream size : 286 MiB (30%)
Title : ☻rDX☻
Default : Yes
Forced : No

http://www.imdb.com/title/tt6547170

Files:

Reprisal 2018 Movies BRRip x264 5.1 with Sample ☻rDX☻
  • Sample ~ Reprisal 2018 Movies BRRip x264 5.1 ☻rDX☻.mkv (10.0 MB)
  • Reprisal 2018 Movies BRRip x264 5.1 ☻rDX☻.mkv (940.0 MB)

There are currently no comments. Feel free to leave one :)

Code:

  • udp://tracker.coppersurfer.tk:6969/announce
  • udp://tracker.leechers-paradise.org:6969/announce
  • udp://tracker.pirateparty.gr:6969/announce
  • udp://eddie4.nl:6969/announce
  • udp://tracker.zer0day.to:1337/announce
  • udp://9.rarbg.me:2710/announce
  • udp://9.rarbg.to:2710/announce
  • udp://public.popcorn-tracker.org:6969/announce
  • udp://p4p.arenabg.ch:1337/announce
  • udp://tracker.vanitycore.co:6969/announce
  • udp://ipv4.tracker.harry.lu:80/announce
  • udp://tracker.opentrackr.org:1337/announce
  • udp://p4p.arenabg.com:1337/announce
  • udp://shadowshq.yi.org:6969/announce