QuickShortcutMaker | 10.02.1802:19 Uhr Sully Dramax265 0 / 01.937 Hits VID P2P DDL 0 Kommentare | Bulutangkis Liga

Outlawed 2018 1080p WEB-DL DD 5.1 x264 [MW]

  • Category Movies
  • Type HD
  • Language English
  • Total size 2.0 GB
  • Uploaded By moviezworldz
  • Downloads 100
  • Last checked 9 minutes ago
  • Date uploaded 7 hours ago
  • Seeders 40
  • Leechers 162

Outlawed

Action

An action packed story of corruption and murder. Outnumbered, outgunned and against all odds, a Commando fights his way through a siege to save his girl.

Infohash : 6BEA1055EEE608D991B9443F9D01451DCB928726





General
Format : Matroska
Format version : Version 4 / Version 2
File size : 2.00 GiB
Duration : 1 h 42 min
Overall bit rate : 2 802 kb/s

Video
ID : 1
Format : AVC
Format/Info : Advanced Video Codec
Format profile : [email protected]
Format settings : CABAC / 4 Ref Frames
Format settings, CABAC : Yes
Format settings, RefFrames : 4 frames
Codec ID : V_MPEG4/ISO/AVC
Duration : 1 h 42 min
Bit rate : 2 500 kb/s
Width : 1 920 pixels
Height : 812 pixels
Display aspect ratio : 2.35:1
Frame rate mode : Constant
Frame rate : 23.976 (24000/1001) FPS
Color space : YUV
Chroma subsampling : 4:2:0
Bit depth : 8 bits
Scan type : Progressive
Bits/(Pixel*Frame) : 0.067
Stream size : 1.72 GiB (86%)
Writing library : x264 core 155 r2901 7d0ff22
Default : Yes
Forced : No

Audio
ID : 2
Format : AC-3
Format/Info : Audio Coding 3
Codec ID : A_AC3
Duration : 1 h 42 min
Bit rate mode : Constant
Bit rate : 384 kb/s
Channel(s) : 6 channels
Channel positions : Front: L C R, Side: L R, LFE
Sampling rate : 48.0 kHz
Frame rate : 31.250 FPS (1536 SPF)
Bit depth : 16 bits
Compression mode : Lossy
Stream size : 280 MiB (14%)
Language : English
Service kind : Complete Main
Default : Yes
Forced : No


Click To Enlarge Image







Files:

Outlawed 2018 1080p WEB-DL DD 5.1 x264 [MW]
  • Outlawed 2018 1080p WEB-DL DD 5.1 x264 [MW].mkv (2.0 GB)

There are currently no comments. Feel free to leave one :)

Code:

  • udp://tracker.coppersurfer.tk:6969/announce
  • udp://tracker.pirateparty.gr:6969/announce
  • udp://tracker.coppersurfer.tk:6969/announce
  • udp://tracker.tiny-vps.com:6969/announce
  • udp://9.rarbg.me:2740/announce
  • udp://9.rarbg.to:2790/announce
  • udp://public.popcorn-tracker.org:6969/announce
  • udp://tracker.vanitycore.co:6969/announce
  • udp://tracker.opentrackr.org:1337/announce
  • udp://open.stealth.si:80/announce